<?xml version="1.0" standalone="no"?>
<!DOCTYPE svg PUBLIC "-//W3C//DTD SVG 1.1//EN" "http://www.w3.org/Graphics/SVG/1.1/DTD/svg11.dtd" >
<svg xmlns="http://www.w3.org/2000/svg">
<metadata>
<json>
<![CDATA[
{
	"fontFamily": "ypca-icons",
	"majorVersion": 2,
	"minorVersion": 0,
	"fontURL": "http://yp.ca",
	"designer": "William Leung",
	"license": "Yellow Pages Group",
	"description": "Font generated by IcoMoon.",
	"version": "Version 2.0",
	"fontId": "ypca-icons",
	"psName": "ypca-icons",
	"subFamily": "Regular",
	"fullName": "ypca-icons"
}
]]>
</json>
</metadata>
<defs>
<font id="ypca-icons" horiz-adv-x="1024">
<font-face units-per-em="1024" ascent="960" descent="-64" />
<missing-glyph horiz-adv-x="1024" />
<glyph unicode="&#x20;" horiz-adv-x="512" d="" />
<glyph unicode="&#xe900;" horiz-adv-x="1940" d="M619.789 318.653h-64.674v-194.021h70.063c59.284 0 102.4 37.726 102.4 102.4 0 53.895-43.116 91.621-107.789 91.621zM619.789 156.968h-26.947v129.347h26.947c32.337 0 59.284-26.947 59.284-64.674 10.779-37.726-16.168-64.674-59.284-64.674z" />
<glyph unicode="&#xe901;" horiz-adv-x="1940" d="M145.516 307.874v-177.853l150.905-91.621 150.905 91.621v177.853l-150.905 91.621-150.905-91.621zM409.6 286.316v-129.347l-113.179-64.674-113.179 64.674v129.347l113.179 64.674 113.179-64.674z" />
<glyph unicode="&#xe902;" horiz-adv-x="1940" d="M1514.442 302.484c0-10.779-10.779-21.558-21.558-21.558s-21.558 10.779-21.558 21.558c0 10.779 10.779 21.558 21.558 21.558 16.168 0 21.558-10.779 21.558-21.558zM1514.442 253.979h-32.337v-134.737h32.337v134.737z" />
<glyph unicode="&#xe903;" horiz-adv-x="1940" d="M953.937 205.474c-16.168 5.389-21.558 10.779-21.558 16.168s5.389 10.779 10.779 10.779c10.779 0 21.558-5.389 32.337-16.168l21.558 21.558c-10.779 16.168-32.337 21.558-48.505 21.558-26.947 0-48.505-16.168-48.505-37.726 0-26.947 21.558-37.726 37.726-43.116h5.389c16.168-10.779 21.558-10.779 21.558-16.168s0-10.779-16.168-10.779c-10.779 0-26.947 5.389-32.337 16.168l-21.558-21.558c16.168-16.168 32.337-21.558 53.895-21.558 32.337 0 48.505 16.168 48.505 37.726 5.389 21.558-16.168 32.337-43.116 43.116z" />
<glyph unicode="&#xe904;" horiz-adv-x="1940" d="M1746.189 205.474c-16.168 5.389-21.558 10.779-21.558 16.168s5.389 10.779 10.779 10.779c10.779 0 21.558-5.389 32.337-16.168l21.558 21.558c-10.779 16.168-32.337 21.558-48.505 21.558-26.947 0-48.505-16.168-48.505-37.726 0-26.947 21.558-37.726 37.726-43.116h5.389c10.779-5.389 16.168-5.389 16.168-10.779s0-10.779-16.168-10.779c-10.779 0-26.947 5.389-32.337 16.168l-21.558-21.558c16.168-16.168 32.337-21.558 53.895-21.558 32.337 0 48.505 16.168 48.505 37.726 10.779 16.168-10.779 26.947-37.726 37.726z" />
<glyph unicode="&#xe905;" horiz-adv-x="1940" d="M1067.116 302.484c0-10.779-10.779-21.558-21.558-21.558s-21.558 10.779-21.558 21.558c0 10.779 10.779 21.558 21.558 21.558 5.389 0 21.558-10.779 21.558-21.558zM1018.611 65.347c21.558 0 37.726 16.168 37.726 48.505v140.126h-32.337v-140.126c0-10.779-5.389-16.168-10.779-16.168s-5.389 0-10.779 5.389l-5.389-26.947c5.389-5.389 10.779-5.389 21.558-10.779v0z" />
<glyph unicode="&#xe906;" horiz-adv-x="1940" d="M1174.905 248.589c-10.779 5.389-21.558 10.779-32.337 10.779-21.558 0-37.726-5.389-48.505-21.558 0 0 16.168-16.168 21.558-21.558 5.389 5.389 10.779 10.779 16.168 16.168 5.389 0 5.389 0 10.779 0s10.779 0 10.779 0c5.389-5.389 10.779-10.779 10.779-16.168v-10.779c0 0-10.779 5.389-26.947 5.389-26.947 0-48.505-16.168-48.505-43.116 0-21.558 16.168-43.116 43.116-43.116 16.168 0 26.947 5.389 32.337 16.168v0-10.779h32.337v91.621c-5.389 5.389-10.779 16.168-21.558 26.947zM1158.737 167.747c0-5.389-16.168-16.168-32.337-16.168-10.779 0-16.168 5.389-16.168 16.168 0 5.389 5.389 16.168 21.558 16.168 10.779 0 26.947-5.389 26.947-5.389v-10.779z" />
<glyph unicode="&#xe907;" horiz-adv-x="1940" d="M1261.137 237.811v0 16.168h-32.337v-134.737h32.337v59.284c0 21.558 10.779 37.726 43.116 37.726v32.337c-21.558 5.389-32.337 0-43.116-10.779z" />
<glyph unicode="&#xe908;" horiz-adv-x="1940" d="M1412.042 135.411v0-10.779h32.337v194.021h-32.337v-70.063c-5.389 10.779-21.558 10.779-32.337 10.779-43.116 0-64.674-32.337-64.674-70.063 0-26.947 10.779-43.116 21.558-48.505 10.779-10.779 26.947-16.168 43.116-16.168 5.389-5.389 16.168 0 32.337 10.779zM1379.705 151.579c-16.168 0-32.337 16.168-32.337 37.726s16.168 37.726 32.337 37.726c21.558 0 32.337-21.558 32.337-37.726 0-21.558-16.168-37.726-32.337-37.726z" />
<glyph unicode="&#xe909;" horiz-adv-x="1940" d="M1579.116 243.2v0 10.779h-32.337v-134.737h32.337v70.063c0 32.337 16.168 32.337 32.337 32.337 21.558 0 26.947-16.168 26.947-32.337v-70.063h32.337v70.063c0 37.726-21.558 64.674-53.895 64.674s-37.726-10.779-37.726-10.779z" />
<glyph unicode="&#xe90a;" horiz-adv-x="1940" d="M878.484 189.305c0 37.726-26.947 64.674-64.674 64.674s-64.674-26.947-64.674-64.674 26.947-70.063 64.674-70.063c21.558 0 43.116 10.779 53.895 21.558 0 0-16.168 16.168-21.558 21.558-5.389-5.389-16.168-16.168-32.337-16.168s-32.337 10.779-32.337 26.947h97.011c0 5.389 0 10.779 0 16.168zM786.863 200.084c5.389 16.168 16.168 21.558 32.337 21.558s26.947-10.779 26.947-21.558h-59.284z" />
<glyph unicode="&#xe90b;" horiz-adv-x="1940" d="M1562.947 792.926c-107.789-26.947-97.011-194.021-107.789-264.084 107.789 26.947 97.011 194.021 107.789 264.084z" />
<glyph unicode="&#xe90c;" horiz-adv-x="1940" d="M1277.305 852.211c0 5.389 48.505 5.389 258.695-10.779 0 0 91.621-5.389 167.074-48.505 91.621-48.505 145.516-161.684-21.558-253.305-37.726-21.558-75.453-32.337-140.126-37.726-48.505-5.389-86.232-5.389-86.232-5.389v0c0 0 10.779 10.779 10.779 16.168 150.905 16.168 129.347 32.337 194.021 75.453 80.842 53.895 53.895 129.347 32.337 167.074-26.947 43.116-80.842 53.895-156.295 64.674-59.284 10.779-80.842 5.389-177.853 16.168-26.947 5.389-80.842 16.168-80.842 16.168z" />
<glyph unicode="&#xe90d;" horiz-adv-x="1940" d="M307.2 771.368h37.726l70.063-274.863h-53.895l-16.168 53.895h-97.011l-32.337-53.895h-59.284l150.905 274.863zM317.979 679.747l-43.116-80.842h64.674l-21.558 80.842z" />
<glyph unicode="&#xe90e;" horiz-adv-x="1940" d="M614.4 658.189l-5.389-43.116c-10.779 5.389-16.168 10.779-21.558 10.779s-16.168 5.389-21.558 5.389c-16.168 0-26.947-5.389-37.726-16.168s-16.168-26.947-16.168-37.726c0-10.779 5.389-21.558 10.779-32.337s21.558-10.779 32.337-10.779c10.779 0 26.947 5.389 43.116 10.779l-5.389-48.505c-21.558-5.389-37.726-5.389-48.505-5.389-26.947 0-43.116 5.389-59.284 21.558s-26.947 37.726-26.947 64.674c0 21.558 10.779 43.116 26.947 64.674s43.116 32.337 75.453 32.337c16.168 0 37.726-5.389 53.895-16.168z" />
<glyph unicode="&#xe90f;" horiz-adv-x="1940" d="M797.642 658.189l-5.389-43.116c-10.779 5.389-16.168 10.779-21.558 10.779s-16.168 5.389-26.947 5.389c-16.168 0-26.947-5.389-37.726-16.168s-16.168-26.947-16.168-37.726c0-10.779 5.389-21.558 10.779-32.337s21.558-10.779 32.337-10.779c10.779 0 26.947 5.389 43.116 10.779l-5.389-43.116c-21.558-5.389-37.726-5.389-48.505-5.389-26.947 0-43.116 10.779-59.284 26.947s-21.558 37.726-21.558 64.674c0 21.558 10.779 43.116 26.947 64.674s43.116 32.337 75.453 32.337c16.168-10.779 37.726-16.168 53.895-26.947z" />
<glyph unicode="&#xe910;" horiz-adv-x="1940" d="M1007.832 582.737c0-26.947-10.779-48.505-26.947-64.674-21.558-16.168-43.116-26.947-70.063-26.947s-48.505 10.779-64.674 26.947-26.947 37.726-26.947 64.674c0 26.947 10.779 48.505 26.947 70.063s43.116 26.947 70.063 26.947c26.947 0 53.895-10.779 70.063-26.947s21.558-43.116 21.558-70.063zM867.705 582.737c0-10.779 5.389-21.558 10.779-32.337s16.168-10.779 32.337-10.779c10.779 0 21.558 5.389 32.337 16.168s10.779 21.558 10.779 32.337c0 10.779-5.389 21.558-10.779 32.337s-16.168 10.779-32.337 10.779c-10.779 0-21.558-5.389-32.337-16.168s-10.779-21.558-10.779-32.337z" />
<glyph unicode="&#xe911;" horiz-adv-x="1940" d="M1158.737 668.968l-10.779-48.505c-5.389 0-10.779 5.389-21.558 5.389-21.558 0-37.726-16.168-43.116-48.505l-10.779-86.232h-53.895l26.947 177.853h53.895v-10.779c16.168 10.779 26.947 16.168 43.116 16.168 0 0 10.779 0 16.168-5.389z" />
<glyph unicode="&#xe912;" horiz-adv-x="1940" d="M1320.421 792.926h53.895l-43.116-296.421h-53.895v16.168c-21.558-10.779-37.726-16.168-53.895-16.168-21.558 0-37.726 5.389-48.505 21.558s-21.558 32.337-21.558 59.284c0 26.947 10.779 53.895 26.947 75.453s37.726 32.337 59.284 32.337c10.779 0 16.168 0 26.947-5.389 5.389-5.389 16.168-5.389 21.558-10.779s10.779-10.779 10.779-10.779l21.558 134.737zM1207.242 577.347c0-10.779 5.389-21.558 10.779-32.337 5.389-5.389 16.168-10.779 26.947-10.779s21.558 5.389 32.337 16.168 16.168 21.558 16.168 37.726c0 10.779-5.389 21.558-10.779 32.337s-16.168 10.779-26.947 10.779c-10.779 0-21.558-5.389-32.337-16.168s-16.168-21.558-16.168-37.726z" />
<glyph unicode="&#xe914;" d="M0 960h1024v-1024h-1024v1024z" />
<glyph unicode="&#xe915;" d="M200 738h624c48.601 0 88-39.399 88-88v-404c0-48.601-39.399-88-88-88h-624c-48.601 0-88 39.399-88 88v404c0 48.601 39.399 88 88 88z" />
<glyph unicode="&#xe916;" d="M178 664h668v-432h-668z" />
<glyph unicode="&#xe917;" d="M874 644l-314-272c-32-28-64-28-96 0l-314 272M848 232l-210 210M176 232l214 214" />
<glyph unicode="&#xe918;" glyph-name="cheque-square" data-tags="cheque-square" d="M886.595 719.849c-9.223-4.214-14.831-9.822-70.159-70.149-41.891-45.702-51.114-56.929-50.711-60.936 0.805-6.62 6.011-9.822 12.228-7.416 2.603 1.198 27.462 26.854 55.121 57.125 27.865 30.262 53.314 57.125 56.722 59.728 6.62 4.607 14.831 5.608 19.644 2.603 2.2-1.405 1.198-2.603-3.811-5.216-8.82-4.607-40.693-35.477-81.582-79.578-52.519-56.526-58.127-64.541-56.32-82.378 0.805-7.622 0-9.419-7.818-18.642-4.813-5.815-32.472-42.294-61.732-81.179-43.698-58.53-53.717-73.165-58.53-85.393l-5.608-14.635h-11.020c-6.011 0-18.043-1.601-26.461-3.811l-15.637-3.605-4.007 6.817c-7.612 12.828-22.856 15.43-40.487 6.414-4.007-2.004-8.015-3.811-8.624-3.811-0.599 0-1.002 5.009-1.002 11.020 0 9.223-0.805 12.032-5.009 16.039-2.603 2.809-6.011 5.009-7.612 5.009-5.216 0-38.483-18.446-53.52-29.466-15.43-11.62-39.288-34.475-45.103-43.492-3.605-5.412-2.809-11.227 2.21-16.236 6.011-5.815 11.423-3.408 23.652 10.225 17.238 19.241 57.125 49.906 60.533 46.498 1.405-1.405-2.603-10.019-12.631-27.865-4.813-8.418-8.614-17.238-8.614-19.438 0-5.608 6.817-12.425 12.022-12.425 2.21 0 12.425 7.818 23.652 18.24 20.646 19.241 34.672 29.063 39.485 27.256 1.405-0.599 3.408-4.41 4.214-8.418 0.805-4.41 3.212-8.418 6.217-10.421 4.41-3.006 6.217-2.809 25.253 2.406 13.23 3.605 25.862 5.608 36.076 5.815 16.639 0.403 21.451 2.809 21.451 11.629 0 2.406 4.214 5.608 12.425 9.822 8.418 4.204 29.26 21.049 67.546 54.925 60.327 52.911 90.599 80.374 93.005 84.588 1.002 1.601 5.412 2.603 11.227 2.603 8.82 0 10.627 1.002 24.653 12.828 22.247 19.045 83.782 86.591 118.66 130.29 22.247 28.062 22.247 57.724 0 77.368-10.019 8.614-22.051 14.036-32.069 14.036-5.412 0-12.828 2.406-21.648 7.013-14.831 7.622-25.655 8.82-36.283 4.214zM37.33 704.821l-6.61-5.815v-253.36c0-139.306 0.599-255.757 1.601-258.772 0.805-3.006 4.41-7.219 8.015-9.419 6.414-4.007 12.228-4.007 409.099-4.007h402.479l13.633 13.633v241.328l-19.448-18.642-19.644-18.642-1.002-88.399-1.002-88.192h-713.553l-0.599 228.108-0.403 227.901h646.626l14.036 14.635c7.622 7.818 16.039 16.835 18.839 20.047l4.607 5.412h-750.259zM262.226 598.379c-3.006-3.006-4.007-6.61-4.007-15.038 0-10.225-0.403-11.020-5.412-12.228-16.039-3.605-20.44-5.216-29.26-10.824-10.019-6.414-20.243-20.047-23.455-32.069-2.603-9.223-2.603-33.071 0-42.49 5.412-19.241 23.249-35.477 47.706-43.099l10.421-3.408v-36.685c0-41.488-0.196-42.088-13.633-29.063-5.815 5.412-9.017 11.227-12.425 21.451-5.815 18.043-10.225 23.052-20.646 23.052-6.011 0-9.017-1.405-13.829-6.217-5.815-5.608-6.011-6.817-5.009-17.64 2.406-27.060 24.251-51.713 52.519-59.325l13.024-3.605v-12.631c0-15.234 3.006-22.453 9.626-24.251 8.418-2.004 12.425 5.009 12.425 22.453v14.429l13.427 3.408c33.071 8.015 52.911 33.071 53.314 67.35 0.403 18.436-4.007 32.265-13.829 43.698-10.019 11.826-17.238 16.432-35.674 22.453l-16.236 5.412-0.599 33.474c-0.196 18.24 0.196 33.277 1.198 33.277s5.412-3.212 9.822-6.817c5.608-5.009 9.223-10.627 12.425-19.045 4.813-13.427 8.221-16.236 19.241-16.236 15.43 0 21.648 16.835 13.024 35.477-8.614 19.045-23.652 30.664-47.509 36.676l-8.614 2.21v11.629c0 8.624-1.002 12.425-3.605 14.831-5.009 4.41-9.616 4.204-14.429-0.609zM258.219 510.187v-30.065l-7.818 4.007c-12.425 6.217-16.236 12.631-16.236 26.863 0 8.015 1.198 14.026 3.212 16.835 2.809 4.007 15.43 12.022 19.438 12.425 0.805 0 1.405-13.623 1.405-30.065zM290.887 427.809c4.607-2.406 10.421-6.011 12.828-8.418 10.225-9.223 10.824-30.262 1.198-41.488-4.813-5.815-18.043-14.036-22.65-14.036-1.198 0-2.004 11.826-2.004 34.073 0 18.839 0.403 34.073 1.002 34.073s5.019-2.004 9.626-4.204zM444.023 566.31c-14.635-1.002-16.236-1.405-21.648-7.612-9.822-11.020-6.217-28.062 7.219-33.68 10.421-4.41 261.169-4.214 269.596 0.206 11.423 6.011 15.43 18.839 9.223 30.664-5.608 11.020-3.408 10.824-130.683 11.020-64.953 0.206-125.084 0-133.708-0.599zM424.781 462.884c-11.423-9.419-10.019-27.462 2.603-35.075 5.815-3.605 11.423-3.811 81.376-3.811s75.571 0.196 81.376 3.811c12.631 7.612 14.036 25.655 2.603 35.075l-6.217 5.216h-155.542z" />
<glyph unicode="&#xe919;" d="M0 960h1024v-1024h-1024v1024z" />
<glyph unicode="&#xe91a;" d="M862 708c34-60 22-130 8-170-70-228-390-214-436-214-48 0-58-42-58-42l-34-148c-10-52-58-50-58-50h-104l-8 2c0-10 2-38 36-38h104c0 0 48-2 58 50l34 146c0 0 12 42 58 42s366-12 438 214c16 50 28 144-38 208z" />
<glyph unicode="&#xe91b;" d="M310 166l34 148c0 0 10 42 58 42 46 0 366-12 436 214 26 82 44 278-278 278h-234c0 0-48 2-60-48l-154-642c0 0-6-42 36-42h104c0 0 48-2 58 50zM398 540l30 130c0 0 10 36 42 42 32 4 86-2 100-4 92-16 72-100 72-100-18-130-224-112-224-112-32 12-20 44-20 44z" />
<glyph unicode="&#xe91c;" d="M0 960h1024v-1024h-1024v1024z" />
<glyph unicode="&#xe91d;" d="M840.875 671.795h-556.681c-9.626 0-16.043-6.417-16.043-16.043s6.417-16.043 16.043-16.043h540.638v-304.811c0-9.626 6.417-16.043 16.043-16.043s16.043 8.021 16.043 16.043v320.853c0 9.626-6.417 16.043-16.043 16.043z" />
<glyph unicode="&#xe91e;" d="M794.351 628.48h-556.681c-9.626 0-16.043-6.417-16.043-16.043s8.021-16.043 16.043-16.043h540.638v-304.811c0-9.626 6.417-16.043 16.043-16.043s16.043 6.417 16.043 16.043v320.853c0 9.626-6.417 16.043-16.043 16.043z" />
<glyph unicode="&#xe91f;" d="M744.619 586.769h-556.681c-11.23 0-20.855-9.626-20.855-20.855v-320.853c0-11.23 9.626-20.855 20.855-20.855h556.681c11.23 0 20.855 9.626 20.855 20.855v320.853c0 11.23-9.626 20.855-20.855 20.855zM723.763 265.916h-513.365v277.538h513.365z" />
<glyph unicode="&#xe920;" d="M232.858 314.044c1.604 0 1.604 0 3.209 0 14.438 0 25.668-11.23 25.668-25.668 0 0 0-1.604 0-1.604 0-1.604 0-3.209 1.604-4.813s3.209-1.604 4.813-1.604h397.858c1.604 0 3.209 0 4.813 1.604s1.604 3.209 1.604 4.813c0 0 0 1.604 0 1.604 0 14.438 11.23 25.668 25.668 25.668 1.604 0 1.604 0 3.209 0s3.209 0 4.813 1.604c1.604 1.604 1.604 3.209 1.604 4.813v166.844c0 1.604-1.604 3.209-3.209 4.813s-3.209 1.604-4.813 1.604c-1.604 0-1.604 0-3.209 0-14.438 0-25.668 11.23-25.668 25.668 0 0 0 1.604 0 1.604 0 1.604 0 3.209-1.604 4.813s-3.209 1.604-4.813 1.604h-396.254c-1.604 0-3.209 0-4.813-1.604s-1.604-3.209-1.604-4.813c0 0 0-1.604 0-1.604 0-14.438-11.23-25.668-25.668-25.668-1.604 0-1.604 0-3.209 0s-3.209 0-4.813-1.604c-1.604-1.604-1.604-3.209-1.604-4.813v-166.844c0-1.604 1.604-3.209 3.209-4.813-1.604-1.604 1.604-1.604 3.209-1.604zM617.882 442.385c20.855 0 38.502-17.647 38.502-38.502s-17.647-38.502-38.502-38.502c-20.855 0-38.502 17.647-38.502 38.502 0 22.46 17.647 38.502 38.502 38.502zM467.081 496.93c51.337 0 93.047-41.711 93.047-93.047s-41.711-93.047-93.047-93.047c-51.337 0-93.047 41.711-93.047 93.047s41.711 93.047 93.047 93.047zM314.675 442.385c20.855 0 38.502-17.647 38.502-38.502s-17.647-38.502-38.502-38.502c-20.855 0-38.502 17.647-38.502 38.502 0 22.46 17.647 38.502 38.502 38.502z" />
<glyph unicode="&#xe921;" d="M462.268 370.193c-11.23 0-22.46 3.209-28.877 8.021l-4.813-20.855c6.417-3.209 17.647-6.417 30.481-8.021v-16.043h17.647v17.647c20.855 3.209 30.481 16.043 30.481 32.085s-8.021 25.668-28.877 33.69c-14.438 4.813-20.855 9.626-20.855 14.438s3.209 9.626 14.438 9.626c12.834 0 20.855-4.813 25.668-6.417l4.813 19.251c-6.417 3.209-14.438 4.813-25.668 6.417v16.043h-17.647v-16.043c-19.251-3.209-28.877-16.043-28.877-30.481 0-17.647 12.834-25.668 32.085-32.085 12.834-4.813 19.251-8.021 19.251-16.043-3.209-8.021-9.626-11.23-19.251-11.23z" />
<glyph unicode="&#xe922;" d="M512 960c-282.771 0-512-229.231-512-512 0-233.047 155.701-429.728 368.754-491.691l626.069 662.483c-70.322 198.792-259.942 341.208-482.823 341.208z" />
<glyph unicode="&#xe923;" d="M131.664 193.438l237.101-237.103c45.457-13.221 93.513-20.335 143.235-20.335 282.769 0 512 229.231 512 512 0 59.891-10.318 117.366-29.217 170.785l-200.993 200.993z" />
<glyph unicode="&#xe924;" d="M724.556 847.211c-26.415 0-50.347-10.598-67.795-27.77l-110.99-109.71-16.731-78.113 195.519 22.261c53.388 0 96.666 43.28 96.666 96.668s-43.28 96.666-96.668 96.666z" />
<glyph unicode="&#xe925;" d="M300.927 847.211c26.415 0 50.347-10.598 67.795-27.77l110.99-109.71 16.731-78.113-195.519 22.261c-53.388 0-96.666 43.28-96.666 96.668s43.28 96.666 96.668 96.666z" />
<glyph unicode="&#xe926;" d="M445.959 743.095h133.565v-111.48h-133.565v111.48z" />
<glyph unicode="&#xe927;" d="M846.654 653.875h-333.541l-117.664-206.247 117.664-273.809h333.541c36.73 0 66.783 30.052 66.783 66.783v346.49c0 36.73-30.052 66.783-66.783 66.783z" />
<glyph unicode="&#xe928;" d="M178.828 653.875c-36.73 0-66.783-30.052-66.783-66.783v-346.49c0-36.73 30.052-66.783 66.783-66.783h334.285v480.056z" />
<glyph unicode="&#xe929;" d="M513.113 525.152l-19.788-22.261 19.788-22.261h334.285v44.522z" />
<glyph unicode="&#xe92a;" d="M179.941 525.152h333.172v-44.522h-333.172v44.522z" />
<glyph unicode="&#xe92b;" d="M513.113 436.108l-19.788-22.261 19.788-22.261h334.285v44.522z" />
<glyph unicode="&#xe92c;" d="M179.941 436.108h333.172v-44.522h-333.172v44.522z" />
<glyph unicode="&#xe92d;" d="M179.941 347.065h333.172v-44.522h-333.172v44.522z" />
<glyph unicode="&#xe92e;" d="M468.22 491.037l44.522 162.838h89.043v-401.564l-89.043 50.176z" />
<glyph unicode="&#xe92f;" d="M423.698 653.875h89.043v-351.388l-89.043-50.176z" />
<glyph unicode="&#xe930;" d="M847.398 293.458c0-29.606-24-53.606-53.606-53.606s-53.606 24-53.606 53.606c0 29.606 24 53.606 53.606 53.606s53.606-24 53.606-53.606z" />
<glyph unicode="&#xe931;" d="M0 960h1024v-1024h-1024v1024z" />
<glyph unicode="&#xe932;" d="M210.609 422.762v-73.296h-39.968c-13.444 0-24.348-10.901-24.348-24.348s10.903-24.348 24.348-24.348h39.968v-18.059c0-13.446 10.903-24.348 24.348-24.348s24.348 10.901 24.348 24.348v19.897c47.208 7.31 78.452 36.019 78.452 74.81v15.548c0 38.791-31.245 67.504-78.452 74.814v73.296h39.968c13.444 0 24.348 10.901 24.348 24.348s-10.903 24.348-24.348 24.348h-39.968v18.059c0 13.446-10.903 24.348-24.348 24.348s-24.348-10.901-24.348-24.348v-20.016c-46.635-7.66-78.452-37.311-78.452-76.105v-14.137c0-38.787 31.245-67.502 78.452-74.81zM259.304 418.164c16.834-4.059 29.757-12.549 29.757-25.194v-15.548c0-12.644-12.923-21.133-29.757-25.192v65.934zM180.852 511.708c0 13.068 13.085 22.012 29.757 26.351v-65.678c-16.834 4.059-29.757 12.549-29.757 25.192v14.135z" />
<glyph unicode="&#xe933;" d="M440.694 427.658h418.778c13.444 0 24.348 10.901 24.348 24.348s-10.903 24.348-24.348 24.348h-418.778c-13.444 0-24.348-10.901-24.348-24.348s10.903-24.348 24.348-24.348z" />
<glyph unicode="&#xe934;" d="M859.472 378.963h-141.216c-13.444 0-24.348-10.901-24.348-24.348s10.903-24.348 24.348-24.348h141.216c13.444 0 24.348 10.901 24.348 24.348s-10.903 24.348-24.348 24.348z" />
<glyph unicode="&#xe935;" d="M440.694 525.277h418.778c13.444 0 24.348 10.901 24.348 24.348s-10.903 24.348-24.348 24.348h-418.778c-13.444 0-24.348-10.901-24.348-24.348s10.903-24.348 24.348-24.348z" />
<glyph unicode="&#xe936;" d="M13.128 946.181h997.053v-997.053h-997.053v997.053z" />
<glyph unicode="&#xe937;" d="M873.026 448c0-123.58-99.952-223.688-223.222-223.688s-223.222 100.108-223.222 223.688c0 123.58 99.797 223.688 223.066 223.688s223.377-100.108 223.377-223.688v0z" />
<glyph unicode="&#xe938;" d="M597.418 448c0-123.58-99.952-223.688-223.222-223.688s-223.222 100.108-223.222 223.688c0 123.58 99.952 223.688 223.222 223.688s223.222-100.108 223.222-223.688v0z" />
<glyph unicode="&#xe939;" d="M511.922 624.121c-52.075-40.883-85.496-104.616-85.496-176.121s33.421-135.239 85.496-176.121c52.075 40.883 85.496 104.616 85.496 176.121s-33.421 135.083-85.496 176.121z" />
<glyph unicode="&#xe93a;" d="M102.4 960h819.2c56.589 0 102.4-45.811 102.4-102.4v-819.2c0-56.589-45.811-102.4-102.4-102.4h-819.2c-56.589 0-102.4 45.811-102.4 102.4v819.2c0 56.589 45.811 102.4 102.4 102.4z" />
<glyph unicode="&#xe93b;" d="M587.453 520.758c0-35.718-28.955-64.674-64.674-64.674s-64.674 28.955-64.674 64.674c0 35.718 28.955 64.674 64.674 64.674s64.674-28.955 64.674-64.674z" />
<glyph unicode="&#xe93c;" d="M169.768 488.421c-8.084-8.084-18.863-10.779-35.032-10.779h-5.389v83.537h5.389c16.168 0 24.253-2.695 32.337-10.779s13.474-18.863 13.474-32.337c2.695-10.779-2.695-21.558-10.779-29.642v0zM140.126 582.737h-35.032v-123.958h35.032c18.863 0 32.337 5.389 45.811 13.474 13.474 10.779 21.558 29.642 21.558 48.505 0 35.032-26.947 61.979-67.368 61.979z" />
<glyph unicode="&#xe93d;" d="M218.274 456.084h26.947v126.653h-26.947v-126.653z" />
<glyph unicode="&#xe93e;" d="M304.505 534.232c-13.474 5.389-18.863 8.084-18.863 16.168s8.084 13.474 18.863 13.474c8.084 0 13.474-2.695 18.863-10.779l13.474 16.168c-10.779 8.084-24.253 13.474-37.726 13.474-21.558 0-40.421-16.168-40.421-35.032 0-16.168 8.084-26.947 29.642-35.032 10.779-2.695 13.474-5.389 16.168-8.084 5.389-2.695 8.084-8.084 8.084-13.474 0-10.779-8.084-18.863-18.863-18.863s-21.558 5.389-26.947 16.168l-16.168-16.168c10.779-16.168 24.253-24.253 43.116-24.253 24.253 0 43.116 16.168 43.116 40.421 2.695 26.947-5.389 35.032-32.337 45.811z" />
<glyph unicode="&#xe93f;" d="M347.621 518.063c0-37.726 29.642-64.674 67.368-64.674 10.779 0 18.863 2.695 29.642 8.084v29.642c-10.779-10.779-18.863-13.474-29.642-13.474-24.253 0-43.116 18.863-43.116 43.116s18.863 43.116 40.421 43.116c10.779 0 21.558-5.389 29.642-13.474v29.642c-10.779 5.389-18.863 8.084-29.642 8.084-35.032-2.695-64.674-32.337-64.674-70.063z" />
<glyph unicode="&#xe940;" d="M644.042 499.2l-35.032 83.537h-24.253l51.2-129.347h13.474l53.895 129.347h-24.253l-35.032-83.537z" />
<glyph unicode="&#xe941;" d="M716.8 456.084h67.368v21.558h-43.116v35.032h43.116v21.558h-43.116v26.947h43.116v21.558h-67.368v-126.653z" />
<glyph unicode="&#xe942;" d="M832.674 523.453h-8.084v37.726h8.084c16.168 0 24.253-5.389 24.253-18.863 0-10.779-8.084-18.863-24.253-18.863v0zM881.179 545.011c0 24.253-16.168 37.726-45.811 37.726h-37.726v-123.958h24.253v51.2h2.695l35.032-51.2h29.642l-40.421 51.2c24.253 2.695 32.337 16.168 32.337 35.032z" />
<glyph unicode="&#xe943;" d="M282.947 340.211v70.063l48.505-51.2v45.811h10.779v-70.063l-48.505 51.2v-45.811h-10.779z" />
<glyph unicode="&#xe944;" d="M393.432 396.8h-26.947v-16.168h24.253v-8.084h-24.253v-21.558h26.947v-10.779h-35.032v64.674h35.032v-8.084z" />
<glyph unicode="&#xe945;" d="M425.768 396.8v-56.589h-10.779v56.589h-16.168v8.084h40.421v-8.084h-13.474z" />
<glyph unicode="&#xe946;" d="M455.411 407.579l16.168-43.116 18.863 45.811 16.168-45.811 18.863 43.116h10.779l-29.642-70.063-16.168 45.811-18.863-45.811-26.947 70.063h10.779z" />
<glyph unicode="&#xe947;" d="M538.947 375.242c0 8.084 2.695 16.168 10.779 24.253 8.084 5.389 16.168 10.779 24.253 10.779s16.168-2.695 24.253-10.779c5.389-5.389 10.779-13.474 10.779-24.253s-2.695-16.168-10.779-24.253c-8.084-5.389-16.168-10.779-24.253-10.779s-16.168 2.695-21.558 8.084c-10.779 8.084-13.474 16.168-13.474 26.947zM549.726 375.242c0-8.084 2.695-13.474 8.084-18.863s10.779-8.084 16.168-8.084c8.084 0 13.474 2.695 16.168 8.084 5.389 5.389 8.084 10.779 8.084 18.863s-2.695 13.474-8.084 18.863c-5.389 5.389-10.779 8.084-16.168 8.084-8.084 0-13.474-2.695-16.168-8.084-8.084-8.084-8.084-13.474-8.084-18.863z" />
<glyph unicode="&#xe948;" d="M641.347 369.853l21.558-26.947h-13.474l-18.863 26.947h-2.695v-26.947h-8.084v64.674h10.779c8.084 0 16.168-2.695 18.863-5.389 5.389-2.695 5.389-8.084 5.389-13.474s0-8.084-2.695-10.779-5.389-8.084-10.779-8.084zM630.568 377.937h2.695c8.084 0 13.474 2.695 13.474 10.779 0 5.389-5.389 10.779-13.474 10.779h-2.695v-21.558z" />
<glyph unicode="&#xe949;" d="M681.768 380.632l24.253 26.947h13.474l-29.642-29.642 29.642-35.032h-13.474l-24.253 29.642v-32.337h-10.779v64.674h10.779v-24.253z" />
<glyph unicode="&#xe94a;" d="M1153.347 561.179c-137.432-175.158-460.8-479.663-1032.084-617.095 91.621-40.421 191.326-61.979 296.421-61.979 390.737-2.695 708.716 299.116 735.663 679.074z" />
<glyph unicode="&#xe94b;" d="M0 960h1024v-1024h-1024v1024z" />
<glyph unicode="&#xe94c;" d="M564.101 432.594l-0.075 160.687 41.944 9.954v-21.065c0 0 10.866 27.703 36.079 34.132 2.211 0.738 4.757 1.163 7.403 1.163 1.507 0 2.981-0.138 4.411-0.402l-0.149 0.023v-41c-7.957-0.107-15.495-1.779-22.36-4.72l0.383 0.146c-15.499-6.121-23.299-19.476-23.299-39.864l0.027-88.727z" />
<glyph unicode="&#xe94d;" d="M342.99 380.342c0 0-6.819 10.226-6.819 46.379v80.010l-21.582-5.134v32.96l21.63 5.108v35.929l44.599 10.535v-35.929l31.515 7.485v-32.922l-31.515-7.48c0 0-0.048-65.551 0-81.471 0-37.044 9.832-44.156 9.832-44.156z" />
<glyph unicode="&#xe94e;" d="M416.994 475.936c0 28.566 4.068 49.407 12.801 65.402 10.391 18.98 27.431 31.349 52.255 37.001 48.928 11.127 66.587-17.834 65.904-56.669-0.261-13.889-0.197-20.654-0.197-20.654l-86.202-20.26v-1.392c0-27.132 5.689-40.008 22.883-36.361 14.854 3.135 18.986 12.438 20.159 23.944 0.192 1.855 0.283 6.574 0.283 6.574l40.382 9.677c0 0 0.096-3.306 0.037-7.016-0.352-15.419-4.836-53.667-60.962-66.937-53.167-12.62-67.344 19.849-67.344 66.692zM483.842 548.408c-14.283-3.242-21.774-17.253-22.1-40.466l43.362 10.327c0.075 1.050 0.085 3.364 0.075 6.99-0.075 17.525-5.492 26.775-21.337 23.15z" />
<glyph unicode="&#xe94f;" d="M804.668 569.904c-1.669 48.938 11.026 87.778 65.627 100.148 34.8 7.907 48.017-1.146 54.708-9.895 6.435-8.349 8.92-19.609 8.92-35.38l0.037-2.895-42.717-10.151c0 0-0.032 5.758-0.032 5.945 0.032 18.703-5.166 25.815-18.751 22.414-16.155-4.057-22.681-19.391-22.681-49.877 0-10.823 0.048-12.764 0.048-14.225 0-30.982 4.233-45.163 22.851-41.266 16.149 3.338 18.362 17.519 18.623 29.953 0.032 1.951 0.112 8.2 0.112 8.2l42.653 10.077c0 0 0.043-3.151 0.043-6.654-0.107-40.626-21.518-66.228-61.634-75.564-55.268-12.956-66.091 18.98-67.808 69.171z" />
<glyph unicode="&#xe950;" d="M657.001 501.388c0 37.225 21.806 48.997 54.628 62.576 29.516 12.209 30.156 18.271 30.278 28.881 0.165 8.93-3.977 16.57-18.671 12.822-9.985-2.064-17.439-10.625-17.785-20.986l-0.001-0.036c-0.187-2.006-0.293-4.337-0.293-6.694 0-0.546 0.006-1.092 0.017-1.635l-0.001 0.081-41.384-9.773c-0.030 0.827-0.047 1.799-0.047 2.775 0 7.712 1.060 15.176 3.043 22.254l-0.139-0.579c6.617 22.259 26.248 37.235 60.135 45.078 44.029 10.146 58.707-9.176 58.76-39.229v-71.171c0-34.42 6.387-39.464 6.387-39.464l-40.627-9.613c-2.017 4.096-3.872 8.942-5.293 13.97l-0.15 0.622c0 0-8.898-22.414-39.577-29.622-32.219-7.597-49.28 12.369-49.28 39.741zM741.624 552.219c-6.208-4.413-13.29-8.625-20.709-12.257l-0.905-0.4c-13.542-6.616-19.663-14.779-19.663-27.351 0-10.887 6.745-18.037 19.002-15.008 13.148 3.316 22.276 15.584 22.276 32.629z" />
<glyph unicode="&#xe951;" d="M109.794 267.7c-14.229 0.019-25.757 11.558-25.757 25.789 0 5.214 1.548 10.067 4.208 14.124l-0.060-0.098 0.288 0.373 0.485 0.128 60.663 14.321v-46.070l-0.944-0.219c-13.761-3.311-30.209-7.080-33.595-7.8-1.578-0.349-3.391-0.549-5.25-0.549-0.014 0-0.027 0-0.041 0h0.002z" />
<glyph unicode="&#xe952;" d="M109.794 208.766c-0.002 0-0.004 0-0.006 0-14.213 0-25.736 11.514-25.751 25.723v0.001c0 0.021 0 0.046 0 0.071 0 5.184 1.548 10.006 4.207 14.030l-0.059-0.095 0.288 0.432 0.485 0.123 60.663 14.315v-46.070l-0.944-0.245c-13.761-3.3-30.209-7.112-33.595-7.789-1.557-0.315-3.346-0.496-5.178-0.496-0.039 0-0.078 0-0.117 0h0.006z" />
<glyph unicode="&#xe953;" d="M109.794 149.718c-14.218 0.009-25.742 11.529-25.757 25.745v0.001c0 0.029 0 0.064 0 0.098 0 5.175 1.548 9.988 4.207 14.002l-0.059-0.094 0.288 0.464 61.148 14.411v-46.070l-0.944-0.245c-14.534-3.497-30.673-7.144-33.595-7.789-1.586-0.332-3.407-0.522-5.274-0.522-0.005 0-0.011 0-0.016 0h0.001z" />
<glyph unicode="&#xe954;" d="M102.636 324.152l-0.016 257.774 46.998 11.106v-257.769z" />
<glyph unicode="&#xe955;" d="M219.698 346.083c0 0 0 0.001 0 0.001 0 16.014-12.982 28.996-28.996 28.996s-28.996-12.982-28.996-28.996c0 0 0-0.001 0-0.001v0l0.048-240.927c0.055-43.32 35.144-78.426 78.452-78.512h0.008c21.95 0 82.080 0.107 82.080 0.107l0.027 100.51c0.016 54.915 0.027 110.811 0.027 112.085 0 0.013 0 0.029 0 0.044 0 13.099-6.636 24.649-16.73 31.47l-0.134 0.085-73.155 49.685c0 0-0.016-107.868-0.016-112.826 0-3.445-2.793-6.238-6.238-6.238s-6.238 2.793-6.238 6.238v0c0 1.21-0.139 123.377-0.139 138.279z" />
<glyph unicode="&#xe956;" d="M258.858 525.837c-18.303-4.349-33.239-16.178-41.666-31.999l-0.166-0.342v18.117l-42.317-10.013 0.048-115.694c4.717 1.92 10.189 3.034 15.921 3.034 11.001 0 21.044-4.103 28.681-10.863l-0.046 0.040v74.7c0 17.893 8.904 32.186 21.625 34.991 9.57 2.101 17.562-1.322 17.562-18.367l0.032-108.987 44.572 10.45v115.294c0 27.953-10.765 47.493-44.247 39.64z" />
<glyph unicode="&#xe957;" d="M906.469 690.818c-0.007 0-0.016 0-0.024 0-15.216 0-27.551 12.335-27.551 27.551s12.335 27.551 27.551 27.551c15.216 0 27.551-12.335 27.551-27.551 0-0.005 0-0.009 0-0.014v0.001c-0.015-15.199-12.329-27.516-27.525-27.537h-0.002zM906.469 742.454c-0.002 0-0.003 0-0.005 0-13.307 0-24.094-10.787-24.094-24.093s10.787-24.093 24.094-24.093c13.305 0 24.091 10.784 24.094 24.088v0c-0.011 13.301-10.788 24.081-24.087 24.099h-0.002z" />
<glyph unicode="&#xe958;" d="M896.436 734.773h11.874c0.248 0.028 0.536 0.044 0.827 0.044 4.288 0 7.764-3.476 7.764-7.764 0-0.325-0.020-0.646-0.059-0.96l0.004 0.038c0-4.361-1.935-7.715-5.604-8.285v-0.064c3.338-0.341 5.092-2.181 5.262-6.91 0.064-2.133 0.096-4.777 0.197-6.835 0.003-1.215 0.632-2.282 1.581-2.897l0.013-0.008h-6.067c-0.556 0.843-0.892 1.874-0.906 2.982v0.004c-0.187 2.010-0.139 3.908-0.229 6.35-0.091 3.668-1.216 5.273-4.9 5.273h-4.393v-14.608h-5.364zM906.097 719.792c0.135-0.013 0.293-0.021 0.452-0.021 2.731 0 4.946 2.214 4.946 4.946 0 0.186-0.010 0.37-0.030 0.551l0.002-0.022c0 3.588-1.552 5.475-5.086 5.475h-4.58v-10.93z" />
<glyph unicode="&#xe959;" d="M0 960h1024v-1024h-1024v1024z" />
<glyph unicode="&#xe95a;" d="M210.609 422.762v-73.296h-39.968c-13.444 0-24.348-10.901-24.348-24.348s10.903-24.348 24.348-24.348h39.968v-18.059c0-13.446 10.903-24.348 24.348-24.348s24.348 10.901 24.348 24.348v19.897c47.208 7.31 78.452 36.019 78.452 74.81v15.548c0 38.791-31.245 67.504-78.452 74.814v73.296h39.968c13.444 0 24.348 10.901 24.348 24.348s-10.903 24.348-24.348 24.348h-39.968v18.059c0 13.446-10.903 24.348-24.348 24.348s-24.348-10.901-24.348-24.348v-20.016c-46.635-7.66-78.452-37.311-78.452-76.105v-14.137c0-38.787 31.245-67.502 78.452-74.81zM259.304 418.164c16.834-4.059 29.757-12.549 29.757-25.194v-15.548c0-12.644-12.923-21.133-29.757-25.192v65.934zM180.852 511.708c0 13.068 13.085 22.012 29.757 26.351v-65.678c-16.834 4.059-29.757 12.549-29.757 25.192v14.135z" />
<glyph unicode="&#xe95b;" d="M440.694 427.658h418.778c13.444 0 24.348 10.901 24.348 24.348s-10.903 24.348-24.348 24.348h-418.778c-13.444 0-24.348-10.901-24.348-24.348s10.903-24.348 24.348-24.348z" />
<glyph unicode="&#xe95c;" d="M859.472 378.963h-141.216c-13.444 0-24.348-10.901-24.348-24.348s10.903-24.348 24.348-24.348h141.216c13.444 0 24.348 10.901 24.348 24.348s-10.903 24.348-24.348 24.348z" />
<glyph unicode="&#xe95d;" d="M440.694 525.277h418.778c13.444 0 24.348 10.901 24.348 24.348s-10.903 24.348-24.348 24.348h-418.778c-13.444 0-24.348-10.901-24.348-24.348s10.903-24.348 24.348-24.348z" />
<glyph unicode="&#xe95e;" glyph-name="not_applicable-square" data-tags="not_applicable-square" d="M284.098 541.655c0-61.835 1.813-116.992 7.278-170.919h-1.209c-18.789 46.067-42.438 96.95-66.691 140.015l-84.857 149.713h-107.898v-408.555h84.876v123.039c0 66.691-1.231 124.292-4.256 178.823h2.417c19.393-47.858 46.672-100.643 70.925-144.226l87.274-157.64h96.995v408.559h-84.853zM418.625 228.259h61.227l129.712 439.482h-61.227zM865.966 660.441h-121.203l-124.292-408.555h95.178l29.091 104.899h116.97l31.531-104.899h100.039c0.004 0-127.314 408.555-127.314 408.555zM758.046 425.897l24.276 86.67c6.673 23.649 12.72 54.576 18.789 78.829h1.209c6.069-24.253 13.347-54.576 20.605-78.829l25.462-86.67z" />
<glyph unicode="&#xe95f;" d="M940.463-64h-859.621c-43.116 0-80.842 35.032-80.842 80.842v398.821c0 43.116 37.726 80.842 80.842 80.842h859.621c43.116 0 80.842-37.726 80.842-80.842v-398.821c0-45.811-35.032-80.842-80.842-80.842z" />
<glyph unicode="&#xe960;" d="M102.4 960h819.2c56.589 0 102.4-35.032 102.4-78.147v-627.874c0-43.116-45.811-78.147-102.4-78.147h-819.2c-56.589 0-102.4 35.032-102.4 78.147v627.874c0 43.116 45.811 78.147 102.4 78.147z" />
<glyph unicode="&#xe961;" d="M563.2 620.463v161.684l43.116 10.779v-21.558c0 0 10.779 26.947 35.032 35.032 2.695 0 8.084 2.695 10.779 0v-40.421c-8.084 0-16.168-2.695-21.558-5.389-16.168-5.389-24.253-18.863-24.253-40.421v-88.926l-43.116-10.779z" />
<glyph unicode="&#xe962;" d="M342.232 569.263c0 0-8.084 10.779-8.084 45.811v80.842l-18.863-5.389v32.337l21.558 5.389v35.032l45.811 10.779v-35.032l32.337 8.084v-32.337l-32.337-8.084c0 0 0-64.674 0-80.842 0-37.726 10.779-43.116 10.779-43.116l-51.2-13.474z" />
<glyph unicode="&#xe963;" d="M417.684 663.579c0 29.642 5.389 48.505 13.474 64.674 10.779 18.863 26.947 32.337 51.2 37.726 48.505 10.779 67.368-18.863 64.674-56.589 0-13.474 0-21.558 0-21.558l-86.232-21.558v-2.695c0-26.947 5.389-40.421 21.558-35.032 16.168 2.695 18.863 13.474 18.863 24.253 0 2.695 0 5.389 0 5.389l40.421 10.779c0 0 0-2.695 0-8.084 0-16.168-5.389-53.895-61.979-67.368-48.505-8.084-61.979 24.253-61.979 70.063zM485.053 736.337c-13.474-2.695-21.558-16.168-21.558-40.421l43.116 10.779c0 0 0 2.695 0 8.084-2.695 16.168-8.084 26.947-21.558 21.558z" />
<glyph unicode="&#xe964;" d="M805.726 757.895c-2.695 48.505 10.779 88.926 64.674 99.705 35.032 8.084 48.505 0 53.895-10.779 5.389-8.084 8.084-18.863 8.084-35.032v-2.695l-43.116-10.779c0 0 0 5.389 0 5.389 0 18.863-5.389 26.947-18.863 21.558-16.168-5.389-21.558-18.863-21.558-51.2 0-10.779 0-13.474 0-13.474 0-29.642 5.389-45.811 21.558-40.421 16.168 2.695 18.863 18.863 18.863 29.642 0 2.695 0 8.084 0 8.084l45.811 13.474c0 0 0-2.695 0-5.389 0-40.421-21.558-67.368-61.979-75.453-56.589-13.474-67.368 18.863-67.368 67.368z" />
<glyph unicode="&#xe965;" d="M657.516 690.526c0 37.726 21.558 48.505 53.895 61.979 29.642 13.474 29.642 18.863 29.642 29.642 0 8.084-2.695 16.168-18.863 13.474-10.779-2.695-16.168-10.779-18.863-21.558 0-2.695 0-5.389 0-8.084l-40.421-10.779c0 8.084 0 16.168 2.695 24.253 8.084 21.558 26.947 37.726 61.979 45.811 43.116 10.779 59.284-8.084 59.284-40.421v-70.063c0-35.032 5.389-40.421 5.389-40.421l-40.421-10.779c-2.695 5.389-5.389 10.779-5.389 13.474 0 0-8.084-21.558-40.421-29.642-32.337-5.389-48.505 16.168-48.505 43.116zM741.053 741.726c-8.084-5.389-13.474-8.084-21.558-13.474-13.474-5.389-18.863-13.474-18.863-26.947 0-10.779 8.084-18.863 18.863-16.168 13.474 2.695 21.558 16.168 21.558 32.337v24.253z" />
<glyph unicode="&#xe966;" d="M110.484 456.084c-13.474 0-26.947 10.779-26.947 26.947 0 5.389 2.695 10.779 5.389 13.474v0 0l61.979 13.474v-45.811c-13.474-2.695-29.642-8.084-32.337-8.084-5.389 0-8.084 0-8.084 0z" />
<glyph unicode="&#xe967;" d="M110.484 396.8c-13.474 0-26.947 10.779-26.947 26.947 0 5.389 2.695 10.779 5.389 13.474v0 0l61.979 13.474v-45.811c-13.474-2.695-29.642-8.084-32.337-8.084-5.389 0-8.084 0-8.084 0z" />
<glyph unicode="&#xe968;" d="M110.484 337.516c-13.474 0-26.947 10.779-26.947 26.947 0 5.389 2.695 10.779 5.389 13.474v0l61.979 16.168v-45.811c-16.168-5.389-32.337-8.084-35.032-8.084-2.695-2.695-5.389-2.695-5.389-2.695z" />
<glyph unicode="&#xe969;" d="M102.4 512.674v258.695l48.505 10.779v-258.695z" />
<glyph unicode="&#xe96a;" d="M220.968 534.232c0 16.168-13.474 29.642-29.642 29.642s-29.642-13.474-29.642-29.642v-239.832c0-43.116 35.032-78.147 78.147-78.147 21.558 0 80.842 0 80.842 0v99.705c0 53.895 0 110.484 0 113.179 0 13.474-5.389 24.253-16.168 32.337l-72.758 48.505c0 0 0-107.789 0-113.179 0-2.695-2.695-5.389-5.389-5.389s-5.389 2.695-5.389 5.389c0 0 0 123.958 0 137.432z" />
<glyph unicode="&#xe96b;" d="M258.695 714.779c-18.863-5.389-32.337-16.168-43.116-32.337v18.863l-40.421-10.779v-115.874c16.168 5.389 32.337 2.695 45.811-8.084v75.453c0 18.863 8.084 32.337 21.558 35.032 10.779 2.695 18.863 0 18.863-18.863v-107.789l45.811 10.779v115.874c-5.389 26.947-16.168 45.811-48.505 37.726z" />
<glyph unicode="&#xe96c;" d="M905.432 879.158c-16.168 0-26.947 13.474-26.947 26.947 0 16.168 13.474 26.947 26.947 26.947 16.168 0 26.947-13.474 26.947-26.947 0 0 0 0 0 0 2.695-13.474-10.779-26.947-26.947-26.947zM905.432 930.358c-13.474 0-24.253-10.779-24.253-24.253s10.779-24.253 24.253-24.253c13.474 0 24.253 10.779 24.253 24.253s-10.779 24.253-24.253 24.253z" />
<glyph unicode="&#xe96d;" d="M897.347 922.274h10.779c5.389 0 8.084-2.695 8.084-8.084 0 0 0 0 0-2.695 0 0 0-5.389-5.389-5.389v0c2.695 0 5.389-2.695 5.389-5.389s0-5.389 0-8.084c0 0 0-2.695 2.695-2.695h-5.389c0 0 0 2.695 0 2.695 0 2.695 0 2.695 0 5.389s0 5.389-5.389 5.389h-5.389v-13.474h-5.389v32.337zM905.432 908.8c2.695 0 5.389 2.695 5.389 5.389 0 0 0 0 0 0 0 2.695-2.695 5.389-5.389 5.389h-5.389v-10.779h5.389z" />
<glyph unicode="&#xe96e;" d="M148.211 43.789c0-21.558 13.474-32.337 32.337-32.337 10.779 0 18.863 2.695 24.253 5.389l2.695-10.779c-5.389-2.695-16.168-5.389-29.642-5.389-26.947 0-45.811 18.863-45.811 45.811s16.168 48.505 43.116 48.505c29.642 0 37.726-26.947 37.726-43.116 0-2.695 0-5.389 0-8.084h-64.674zM196.716 54.568c0 10.779-5.389 26.947-24.253 26.947-16.168 0-24.253-16.168-24.253-26.947h48.505z" />
<glyph unicode="&#xe96f;" d="M277.558 57.263v-13.474h-45.811v13.474h45.811z" />
<glyph unicode="&#xe970;" d="M312.589 113.853h-37.726v13.474h94.316v-13.474h-37.726v-113.179h-16.168v113.179z" />
<glyph unicode="&#xe971;" d="M374.568 62.653c0 10.779 0 18.863 0 29.642h13.474v-18.863c5.389 13.474 13.474 18.863 24.253 18.863 2.695 0 2.695 0 5.389 0v-16.168c-2.695 0-2.695 0-5.389 0-10.779 0-18.863-8.084-21.558-21.558 0-2.695 0-5.389 0-8.084v-48.505h-16.168v64.674z" />
<glyph unicode="&#xe972;" d="M485.053 0.674v10.779c-5.389-8.084-16.168-13.474-26.947-13.474-18.863 0-26.947 13.474-26.947 26.947 0 21.558 18.863 35.032 53.895 35.032v2.695c0 8.084-2.695 21.558-21.558 21.558-8.084 0-16.168-2.695-24.253-8.084l-2.695 10.779c8.084 5.389 18.863 8.084 29.642 8.084 26.947 0 35.032-18.863 35.032-37.726v-35.032c0-8.084 0-16.168 2.695-21.558h-18.863zM482.358 46.484c-18.863 0-37.726-2.695-37.726-21.558 0-10.779 8.084-16.168 16.168-16.168 10.779 0 18.863 8.084 21.558 16.168 0 2.695 0 2.695 0 5.389v16.168z" />
<glyph unicode="&#xe973;" d="M525.474 65.347c0 8.084 0 16.168 0 24.253h13.474v-16.168c5.389 8.084 16.168 16.168 29.642 16.168s32.337-8.084 32.337-37.726v-53.895h-16.168v53.895c0 13.474-5.389 26.947-21.558 26.947-10.779 0-18.863-8.084-21.558-16.168 0-2.695 0-5.389 0-8.084v-53.895h-16.168v64.674z" />
<glyph unicode="&#xe974;" d="M627.874 16.842c5.389-2.695 13.474-5.389 21.558-5.389 10.779 0 18.863 5.389 18.863 13.474s-5.389 13.474-16.168 16.168c-16.168 5.389-24.253 16.168-24.253 26.947 0 13.474 10.779 26.947 32.337 26.947 8.084 0 16.168-2.695 21.558-5.389l-5.389-10.779c-2.695 2.695-10.779 5.389-18.863 5.389-10.779 0-16.168-5.389-16.168-13.474s5.389-10.779 16.168-16.168c16.168-5.389 24.253-13.474 24.253-26.947 0-16.168-13.474-26.947-35.032-26.947-10.779 0-18.863 2.695-26.947 5.389l8.084 10.779z" />
<glyph unicode="&#xe975;" d="M706.021 0.674v78.147h-13.474v13.474h13.474v5.389c0 13.474 2.695 24.253 10.779 32.337 5.389 5.389 13.474 8.084 21.558 8.084 5.389 0 10.779 0 13.474-2.695l-2.695-13.474c-2.695 0-5.389 2.695-10.779 2.695-13.474 0-18.863-13.474-18.863-26.947v-5.389h21.558v-13.474h-21.558v-78.147h-13.474z" />
<glyph unicode="&#xe976;" d="M765.305 43.789c0-21.558 13.474-32.337 32.337-32.337 10.779 0 18.863 2.695 24.253 5.389l2.695-10.779c-5.389-2.695-16.168-5.389-29.642-5.389-26.947 0-45.811 18.863-45.811 45.811s16.168 48.505 43.116 48.505c29.642 0 37.726-26.947 37.726-43.116 0-2.695 0-5.389 0-8.084h-64.674zM813.811 54.568c0 10.779-5.389 26.947-24.253 26.947-16.168 0-24.253-16.168-24.253-26.947h48.505z" />
<glyph unicode="&#xe977;" d="M851.537 62.653c0 10.779 0 18.863 0 29.642h13.474v-18.863c5.389 13.474 13.474 18.863 24.253 18.863 2.695 0 2.695 0 5.389 0v-16.168c-2.695 0-2.695 0-5.389 0-10.779 0-18.863-8.084-21.558-21.558 0-2.695 0-5.389 0-8.084v-48.505h-16.168v64.674z" />
<glyph unicode="&#xe978;" d="M102.4 960h819.2c56.589 0 102.4-45.811 102.4-102.4v-819.2c0-56.589-45.811-102.4-102.4-102.4h-819.2c-56.589 0-102.4 45.811-102.4 102.4v819.2c0 56.589 45.811 102.4 102.4 102.4z" />
<glyph unicode="&#xe979;" d="M743.747 585.432h-555.116c-10.779 0-21.558-10.779-21.558-21.558v-320.674c0-10.779 10.779-21.558 21.558-21.558h557.811c10.779 0 21.558 10.779 21.558 21.558v323.368c-2.695 10.779-13.474 18.863-24.253 18.863zM724.884 264.758h-514.695v277.558h514.695c0 0 0-277.558 0-277.558z" />
<glyph unicode="&#xe97a;" d="M231.747 313.263c2.695 0 2.695 0 2.695 0 13.474 0 26.947-10.779 26.947-26.947v0c0-2.695 0-2.695 2.695-5.389s2.695-2.695 5.389-2.695h398.821c2.695 0 2.695 0 5.389 2.695s0 5.389 0 5.389v2.695c0 13.474 10.779 26.947 26.947 26.947 2.695 0 2.695 0 2.695 0 2.695 0 2.695 0 5.389 2.695s2.695 2.695 2.695 5.389v164.379c0 2.695-2.695 2.695-2.695 5.389-2.695 2.695-2.695 2.695-5.389 2.695s-2.695 0-2.695 0c-13.474 0-26.947 10.779-26.947 26.947v2.695c0 2.695 0 2.695-2.695 5.389s-2.695 2.695-5.389 2.695h-396.126c-2.695 0-2.695 0-5.389-2.695s-2.695-2.695-2.695-5.389v-2.695c0-13.474-10.779-26.947-26.947-26.947-2.695 0-2.695 0-2.695 0s-2.695 0-5.389-2.695c-2.695-2.695-2.695-2.695-2.695-5.389v-164.379c0-2.695 2.695-2.695 2.695-5.389 2.695-5.389 5.389-5.389 5.389-5.389zM617.095 439.916c21.558 0 37.726-18.863 37.726-37.726s-18.863-37.726-37.726-37.726-37.726 18.863-37.726 37.726c0 21.558 18.863 37.726 37.726 37.726zM466.189 491.116c51.2 0 94.316-40.421 94.316-91.621s-40.421-91.621-94.316-91.621-94.316 40.421-94.316 91.621 43.116 91.621 94.316 91.621zM315.284 439.916c21.558 0 37.726-18.863 37.726-37.726s-18.863-37.726-37.726-37.726-37.726 18.863-37.726 37.726c-2.695 21.558 16.168 37.726 37.726 37.726z" />
<glyph unicode="&#xe97b;" d="M463.495 369.853c-10.779 0-21.558 2.695-29.642 8.084l-5.389-21.558c5.389-2.695 18.863-5.389 29.642-8.084v-16.168h18.863v18.863c21.558 2.695 29.642 16.168 29.642 32.337s-8.084 26.947-29.642 35.032c-13.474 2.695-18.863 8.084-18.863 13.474s2.695 10.779 13.474 10.779c13.474 0 21.558-5.389 26.947-5.389l5.389 18.863c-5.389 2.695-13.474 5.389-26.947 5.389v13.474h-18.863v-16.168c-18.863-2.695-29.642-16.168-29.642-29.642 0-18.863 13.474-26.947 32.337-32.337 13.474-5.389 18.863-8.084 18.863-16.168-2.695-8.084-8.084-10.779-16.168-10.779z" />
<glyph unicode="&#xe97c;" d="M870.4 693.221l10.779 10.779c5.389 2.695 8.084 8.084 8.084 13.474 0 8.084-2.695 13.474-8.084 21.558l-18.863 16.168c-5.389 5.389-13.474 8.084-18.863 8.084s-8.084-2.695-13.474-5.389l-86.232-86.232-167.074-164.379c0 0-2.695-2.695-2.695-5.389l-13.474-51.2c0-2.695 0-8.084 2.695-10.779s5.389-2.695 8.084-2.695h2.695l51.2 13.474c2.695 0 2.695 0 5.389 2.695l220.968 220.968 5.389-5.389-94.316-94.316c-5.389-5.389-5.389-10.779 0-16.168 2.695-2.695 5.389-2.695 8.084-2.695s5.389 0 8.084 2.695l102.4 102.4c2.695 2.695 2.695 5.389 2.695 8.084 0 5.389 0 8.084-2.695 8.084l-10.779 16.168zM617.095 472.253l-26.947-8.084 8.084 26.947 156.295 156.295 21.558-21.558-158.989-153.6zM851.537 706.695v0l-64.674-64.674-18.863 21.558 75.453 75.453c0 0 0 0 2.695-2.695l16.168-13.474c0 0 0-2.695 2.695-2.695l-13.474-13.474z" />
<glyph unicode="&#xe97d;" d="M102.4 960h819.2c56.589 0 102.4-45.811 102.4-102.4v-819.2c0-56.589-45.811-102.4-102.4-102.4h-819.2c-56.589 0-102.4 45.811-102.4 102.4v819.2c0 56.589 45.811 102.4 102.4 102.4z" />
<glyph unicode="&#xe97e;" d="M210.189 423.747v-72.758h-40.421c-13.474 0-24.253-10.779-24.253-24.253s10.779-24.253 24.253-24.253h40.421v-18.863c0-13.474 10.779-24.253 24.253-24.253s24.253 10.779 24.253 24.253v18.863c48.505 8.084 78.147 35.032 78.147 75.453v16.168c0 37.726-32.337 67.368-78.147 75.453v72.758h40.421c13.474 0 24.253 10.779 24.253 24.253s-10.779 24.253-24.253 24.253h-40.421v18.863c0 13.474-10.779 24.253-24.253 24.253s-24.253-10.779-24.253-24.253v-18.863c-45.811-8.084-78.147-37.726-78.147-75.453v-13.474c0-43.116 32.337-72.758 78.147-78.147zM258.695 418.358c16.168-5.389 29.642-13.474 29.642-24.253v-16.168c0-13.474-13.474-21.558-29.642-24.253 0-2.695 0 64.674 0 64.674zM180.547 512.674c0 13.474 13.474 21.558 29.642 26.947v-64.674c-16.168 5.389-29.642 13.474-29.642 24.253v13.474z" />
<glyph unicode="&#xe97f;" d="M441.937 426.442h417.684c13.474 0 24.253 10.779 24.253 24.253s-10.779 24.253-24.253 24.253h-417.684c-13.474 0-24.253-10.779-24.253-24.253s10.779-24.253 24.253-24.253z" />
<glyph unicode="&#xe980;" d="M859.621 377.937h-140.126c-13.474 0-24.253-10.779-24.253-24.253s10.779-24.253 24.253-24.253h140.126c13.474 0 24.253 10.779 24.253 24.253s-10.779 24.253-24.253 24.253z" />
<glyph unicode="&#xe981;" d="M441.937 526.147h417.684c13.474 0 24.253 10.779 24.253 24.253s-10.779 24.253-24.253 24.253h-417.684c-13.474 0-24.253-10.779-24.253-24.253s10.779-24.253 24.253-24.253z" />
<glyph unicode="&#xe982;" d="M0 960h1024v-1024h-1024v1024z" />
<glyph unicode="&#xe983;" d="M167.234 436.818h59.635l-29.818 74.544-29.818-74.544zM998.4 578.452h-152.815l-37.272-40.999-33.545 40.999h-324.267l-29.818-67.090-29.818 67.090h-130.452v-29.818l-14.909 29.818h-111.816l-108.089-260.904h130.452l14.909 40.999h37.272l14.909-40.999h145.361v29.818l11.182-29.818h74.544l11.182 33.545v-33.545h298.176l37.272 40.999 33.545-40.999h152.815l-96.907 130.452 108.089 130.452zM547.408 354.82h-40.999v145.361l-63.362-145.361h-37.272l-63.362 145.361v-145.361h-85.726l-14.909 40.999h-89.453l-14.909-40.999h-48.454l78.271 186.36h63.362l70.817-175.179v175.179h70.817l55.908-126.725 52.181 126.725h70.817v-186.36zM916.402 354.82h-55.908l-48.454 63.362-55.908-63.362h-167.724v186.36h171.451l52.181-59.635 55.908 59.635h52.181l-81.998-93.18 78.271-93.18zM629.407 503.908v-33.545h93.18v-37.272h-93.18v-37.272h104.362l48.454 55.908-44.726 52.181h-108.089z" />
<glyph unicode="&#xe984;" d="M0 960h1024v-1024h-1024v1024z" />
<glyph unicode="&#xe985;" d="M382.896 316.34l44.488 261.063h71.156l-44.52-261.063z" />
<glyph unicode="&#xe986;" d="M711.098 571.772c-14.096 5.289-36.186 10.965-63.774 10.965-70.312 0-119.838-35.408-120.261-86.154-0.396-37.512 35.358-58.438 62.35-70.926 27.698-12.798 37.009-20.958 36.876-32.383-0.177-17.5-22.119-25.492-42.573-25.492-28.478 0-43.609 3.957-66.978 13.701l-9.171 4.15-9.986-58.441c16.62-7.289 47.352-13.601 79.264-13.929 74.8 0 123.358 35.003 123.91 89.194 0.265 29.699-18.691 52.297-59.745 70.93-24.871 12.077-40.103 20.136-39.942 32.364 0 10.851 12.893 22.455 40.752 22.455 23.267 0.361 40.124-4.713 53.257-10.002l6.376-3.013 9.644 56.581z" />
<glyph unicode="&#xe987;" d="M894.208 577.404h-54.983c-17.034 0-29.781-4.649-37.261-21.649l-105.677-239.244h74.721c0 0 12.215 32.167 14.979 39.231 8.165 0 80.754-0.112 91.131-0.112 2.128-9.14 8.658-39.119 8.658-39.119h66.028zM806.97 408.83c5.886 15.041 28.352 72.978 28.352 72.978-0.419-0.695 5.842 15.115 9.434 24.916l4.81-22.508c0 0 13.625-62.316 16.472-75.382h-59.068z" />
<glyph unicode="&#xe988;" d="M322.492 577.404l-69.664-178.026-7.421 36.178c-12.97 41.706-53.376 86.891-98.548 109.512l63.7-228.312 75.286 0.085 112.025 260.56-75.378 0.001z" />
<glyph unicode="&#xe989;" d="M73.068 577.427l-0.87-5.468c89.268-21.609 148.34-73.825 172.859-136.572l-24.978 119.982c-4.306 16.531-16.793 21.482-32.248 22.058h-114.763z" />
<glyph unicode="&#xe98a;" d="M0 960h1024v-1024h-1024v1024z" />
<glyph unicode="&#xe98b;" d="M478.742 408.862v-119.487h-37.906v295.081h100.534c0.565 0.013 1.231 0.020 1.898 0.020 24.571 0 46.865-9.749 63.226-25.589l-0.024 0.023c16.732-15.094 27.203-36.853 27.203-61.057 0-0.428-0.003-0.856-0.010-1.282l0.001 0.064c0.012-0.515 0.018-1.122 0.018-1.731 0-24.156-10.478-45.865-27.136-60.83l-0.075-0.067q-26.37-25.145-65.1-25.122h-62.628zM478.742 548.127v-103.006h63.569c0.442-0.014 0.962-0.022 1.484-0.022 14.133 0 26.9 5.852 36.008 15.265l0.013 0.014c9.401 9.148 15.234 21.922 15.234 36.058s-5.833 26.911-15.223 36.047l-0.011 0.011c-9.047 9.658-21.879 15.676-36.117 15.676-0.488 0-0.975-0.007-1.46-0.021l0.071 0.002h-63.569zM721.012 497.86q42.026 0 66.348-22.461t24.298-61.592v-124.432h-36.258v28.018h-1.648q-23.544-34.61-62.628-34.61-33.362 0-55.823 19.777c-13.781 11.66-22.472 28.965-22.472 48.301 0 0.401 0.004 0.802 0.011 1.202l-0.001-0.060q0 31.337 23.686 49.843t63.24 18.553q33.762 0 55.612-12.361v8.664c0.001 0.086 0.001 0.188 0.001 0.289 0 13.352-6.064 25.288-15.587 33.204l-0.070 0.057c-9.477 8.576-22.105 13.824-35.959 13.824-0.221 0-0.442-0.001-0.662-0.004h0.034q-31.761 0-50.267-26.793l-33.386 21.025q27.547 39.554 81.534 39.554zM671.97 351.179c0-0.047 0-0.103 0-0.16 0-10.073 4.919-18.998 12.486-24.502l0.087-0.060c7.787-6.169 17.752-9.897 28.589-9.897 0.304 0 0.608 0.003 0.91 0.009l-0.045-0.001c16.655 0.029 31.724 6.789 42.639 17.705v0q18.835 17.729 18.835 41.603-17.729 14.127-49.443 14.127-23.097 0-38.518-11.136c-10.383-7.534-15.539-16.693-15.539-27.688zM1019.789 491.267l-126.574-290.89h-39.131l46.971 101.782-83.229 189.108h41.202l60.156-145.033h0.824l58.507 145.033z" />
<glyph unicode="&#xe98c;" d="M346.512 434.62c0 0.074 0 0.162 0 0.25 0 12.089-1.062 23.931-3.098 35.436l0.178-1.217h-159.866v-65.288h91.564c-3.984-21.625-16.369-39.795-33.574-51.336l-0.283-0.179v-42.38h54.646c31.997 29.501 50.432 73.129 50.432 124.714z" />
<glyph unicode="&#xe98d;" d="M183.727 268.962c45.746 0 84.265 15.021 112.353 40.92l-54.646 42.38c-15.21-10.312-34.798-16.198-57.707-16.198-44.216 0-81.746 29.807-95.166 69.974h-56.294v-43.675c28.506-55.832 85.596-93.397 151.46-93.4v0z" />
<glyph unicode="&#xe98e;" d="M88.562 406.037c-3.373 9.678-5.321 20.833-5.321 32.444s1.948 22.766 5.535 33.158l-0.214-0.714v43.675h-56.294c-11.38-22.166-18.051-48.363-18.051-76.119s6.67-53.953 18.495-77.076l-0.445 0.958z" />
<glyph unicode="&#xe98f;" d="M183.727 540.899c0.447 0.008 0.975 0.012 1.503 0.012 24.652 0 47.040-9.692 63.561-25.474l-0.035 0.033 48.383 48.384c-29.067 27.351-68.326 44.157-111.51 44.157-0.669 0-1.337-0.004-2.003-0.012l0.101 0.001c-65.864-0.003-122.954-37.569-151.016-92.443l-0.445-0.958 56.294-43.675c13.42 40.167 50.95 69.974 95.166 69.974z" />
<glyph unicode="&#xe990;" d="M0 960h1024v-1024h-1024v1024z" />
<glyph unicode="&#xe991;" d="M200.022 565.021c-11.761-13.918-30.58-24.895-49.398-23.327-2.352 18.818 6.861 38.812 17.642 51.162 11.761 14.31 32.344 24.503 49.006 25.287 1.96-19.602-5.685-38.812-17.25-53.122zM217.076 537.97c-27.247 1.568-50.574-15.486-63.511-15.486-13.134 0-32.932 14.702-54.494 14.31-28.031-0.392-54.102-16.27-68.412-41.557-29.403-50.574-7.645-125.454 20.778-166.619 13.918-20.386 30.58-42.733 52.534-41.949 20.778 0.784 29.011 13.526 54.102 13.526 25.287 0 32.54-13.526 54.494-13.134 22.739 0.392 37.048 20.386 50.966 40.773 15.878 23.131 22.347 45.673 22.739 46.849-0.392 0.392-43.909 17.054-44.301 67.236-0.392 41.949 34.304 61.943 35.872 63.119-19.602 29.011-50.182 32.148-60.767 32.932zM374.482 594.816v-305.599h47.438v104.48h65.667c59.983 0 102.128 41.165 102.128 100.755s-41.361 100.364-100.56 100.364zM421.919 554.827h54.69c41.165 0 64.687-21.954 64.687-60.571s-23.523-60.767-64.883-60.767h-54.494zM676.356 286.865c29.795 0 57.435 15.094 69.98 39.008h0.98v-36.656h43.909v152.113c0 44.105-35.284 72.528-89.582 72.528-50.378 0-87.622-28.815-88.994-68.412h42.733c3.528 18.818 20.974 31.168 44.889 31.168 29.011 0 45.281-13.526 45.281-38.42v-16.858l-59.199-3.528c-55.082-3.332-84.878-25.875-84.878-65.079 0-39.597 30.776-65.864 74.881-65.864zM689.098 323.129c-25.287 0-41.361 12.153-41.361 30.776 0 19.21 15.486 30.384 45.085 32.148l52.73 3.332v-17.25c0-28.619-24.307-49.006-56.454-49.006zM849.836 206.104c46.261 0 68.020 17.642 87.034 71.156l83.31 233.659h-48.222l-55.866-180.537h-0.98l-55.866 180.537h-49.594l80.369-222.486-4.313-13.526c-7.253-22.935-19.014-31.756-39.989-31.756-3.724 0-10.977 0.392-13.918 0.784v-36.656c2.744-0.784 14.506-1.176 18.034-1.176z" />
</font>
</defs>
</svg>
